Anime Spy Kids: Mission Critical (TV Series) Temporada 2 [2019][MICROHD WEB-DL 1080p][MP4][Latino Dual DD 5.1 + Subs][10/10][882 MB][Multi]


juandavid

Aprendiz Warez
21 Jul 2019
739
124
163
#1



Sinopsis

Serie de TV (2019). Los hermanos Juni y Carmen Cortez acuden a una escuela de espionaje secreto para niños.

CAPTURAS



INFO DE LA SERIE

Título original: Spy Kids: Mission Critical (TV Series)
Año: 2019
Duración: 00:24:37
País: Estados Unidos
Dirección: F.M. De Marco (Creator), Ian Freedman
Guion: F.M. De Marco, Sam Cherington, Justin Halliwell, Mark Hoffmeier, Ricky Roxburgh, John Tellegen (Personajes: Robert Rodriguez)
Música: Jared Gutstadt, Joel S. Silver
Fotografía: Animation
Reparto: Animation
Productora: The Weinstein Company / Troublemaker Studios / Mainframe Studios / Miramax. Distribuida por Netflix
Género: Serie de TV. Animación. Aventuras. Intriga
Grupos: Spy Kids

TRAILER



INFO RIPEO

Título original: Spy Kids: Mission Critical (TV Series)
Temporada: 2
Capítulos: 10
Calidad: HD 1080p
Resolución: 1920 x 1080p
Idioma: Latino - Inglés + Sub. Lat/Ing
Video: MPEG4 Video (H264) 1920x1080 23.976fps 1991kbps [V: h264 high L4.0, yuv420p, 1920x1080, 1991 kb/s]
Audio: DD+ 48000Hz 6ch 256kbps [A: Audio Media Handler [eng] (eac3, 48000 Hz, 5.1, 256 kb/s)]
Audio: DD+ 48000Hz 6ch 256kbps [A: Audio Media Handler [spa] (eac3, 48000 Hz, 5.1, 256 kb/s)]
Formato: MP4
Peso aproximado por capitulo: 882 MB
Tamaño Total: 5,16 GB

INFO-ARCHIVO

General
Complete name : C:\Users\david\Videos\Miniespías 2\[T2.Ep1] Miniespías - Misión crucial - Secretos y espías\[T2.Ep1] Miniespías - Misión crucial - Secretos y espías.mp4
Format : MPEG-4
Format profile : Base Media
Codec ID : isom (isom/iso2/avc1/mp41)
File size : 882 MiB
Duration : 24 min 36 s
Overall bit rate : 5 012 kb/s
Writing application : Lavf58.33.100

Video
ID : 1
Format : AVC
Format/Info : Advanced Video Codec
Format profile : High@L4
Format settings, CABAC : Yes
Format settings, RefFrames : 3 frames
Codec ID : avc1
Codec ID/Info : Advanced Video Coding
Duration : 24 min 34 s
Bit rate : 4 241 kb/s
Width : 1 920 pixels
Height : 1 080 pixels
Display aspect ratio : 16:9
Frame rate mode : Constant
Frame rate : 23.976 FPS
Color space : YUV
Chroma subsampling : 4:2:0
Bit depth : 8 bits
Scan type : Progressive
Bits/(Pixel*Frame) : 0.085
Stream size : 746 MiB (85%)

Audio #1
ID : 2
Format : E-AC-3
Format/Info : Enhanced Audio Coding 3
Format settings, Endianness : Big
Codec ID : ec-3
Duration : 24 min 36 s
Bit rate mode : Constant
Bit rate : 256 kb/s
Channel(s) : 6 channels
Channel positions : Front: L C R, Side: L R, LFE
Sampling rate : 48.0 kHz
Frame rate : 187.500 FPS (256 SPF)
Bit depth : 16 bits
Compression mode : Lossy
Stream size : 45.1 MiB (5%)
Language : English
Service kind : Complete Main
Default : Yes
Alternate group : 1

Audio #2
ID : 3
Format : E-AC-3
Format/Info : Enhanced Audio Coding 3
Format settings, Endianness : Big
Codec ID : ec-3
Duration : 24 min 36 s
Bit rate mode : Constant
Bit rate : 256 kb/s
Channel(s) : 6 channels
Channel positions : Front: L C R, Side: L R, LFE
Sampling rate : 48.0 kHz
Frame rate : 187.500 FPS (256 SPF)
Bit depth : 16 bits
Compression mode : Lossy
Stream size : 45.1 MiB (5%)
Language : Spanish
Service kind : Complete Main
Default : Yes
Alternate group : 2

Audio #3
ID : 4
Format : E-AC-3
Format/Info : Enhanced Audio Coding 3
Format settings, Endianness : Big
Codec ID : ec-3
Duration : 24 min 36 s
Bit rate mode : Constant
Bit rate : 256 kb/s
Channel(s) : 6 channels
Channel positions : Front: L C R, Side: L R, LFE
Sampling rate : 48.0 kHz
Frame rate : 187.500 FPS (256 SPF)
Bit depth : 16 bits
Compression mode : Lossy
Stream size : 45.1 MiB (5%)
Language : English
Service kind : Complete Main
Default : Yes
Alternate group : 3

UptoBox - Ddl - Usersdrive - Speed-Down - Mega - Up-4ever

DESCARGA

Insertar CODE, HTML o PHP:
https://binbox.io/tD9G1#MB7nWFNS

https://binbox.io/Hs9f1#Wgk1p7Ur