Evento Deportivo SBK Superbikes (2019)[HDTV 720p][Castellano][4/13][1.3GB][VS]


parrix

Miembro
1 Mar 2019
86
8
18
#1









Campeonato Mundial de Superbikes

Temporada actual: 2019
Emisión: TDP HD/DAZN HD
Fundación: 1988
Constructores: Aprilia, BMW, Ducati, Honda, Kawasaki, MV Agusta, Yamaha
Neumáticos: P Pirelli
Comentaristas y colaboradores: Marc Martín, Eva Blánquez, Joan Lascorz, Judit Florensa Mingote

Ganadores
Piloto campeón: Bandera de Reino Unido Jonathan Rea
Escudería campeona: Bandera de Japón Kawasaki





Calidad: HDTV 720p
Formato: MKV
Resolución: 1024x576p
Video: AVC H264
Audio: Castellano AAC/AC3 48000 Hz
Tamaño: 1,3 GB
Subtítulos: No
By: Parrix





Descomprimir con winrar, 7zip o programa similar.



MediaInfo:

Insertar CODE, HTML o PHP:
General
Unique ID                   : 195398919406918395770246497735707885504 (0x9300768714AE721AA8B6686D78767FC0)
Complete name               : SBK19.1.Australia.Carrera.1.mkv (BY PARRIX)
Format                      : Matroska
Format version              : Version 4 / Version 2
File size                   : 1.29 GiB
Duration                    : 1 h 22 min
Overall bit rate            : 2 243 kb/s
Encoded date                : UTC 2019-04-05 10:37:37
Writing application         : mkvmerge v16.0.0 ('Protest') 64-bit
Writing library             : libebml v1.3.5 + libmatroska v1.4.8

Video
ID                          : 1
Format                      : AVC
Format/Info                 : Advanced Video Codec
Format profile              : [email protected]
Format settings             : CABAC / 4 Ref Frames
Format settings, CABAC      : Yes
Format settings, RefFrames  : 4 frames
Codec ID                    : V_MPEG4/ISO/AVC
Duration                    : 1 h 22 min
Bit rate                    : 1 500 kb/s
Width                       : 1 024 pixels
Height                      : 576 pixels
Display aspect ratio        : 16:9
Frame rate mode             : Constant
Frame rate                  : 25.000 FPS
Color space                 : YUV
Chroma subsampling          : 4:2:0
Bit depth                   : 8 bits
Scan type                   : Progressive
Bits/(Pixel*Frame)          : 0.102
Stream size                 : 887 MiB (67%)
Writing library             : x264 core 142 r2479 dd79a61
Encoding settings           : cabac=1 / ref=2 / deblock=1:0:0 / analyse=0x3:0x113 / me=hex / subme=7 / psy=1 / psy_rd=1.00:0.00 / mixed_ref=1 / me_range=16 / chroma_me=1 / trellis=1 / 8x8dct=1 / cqm=0 / deadzone=21,11 / fast_pskip=1 / chroma_qp_offset=-2 / threads=12 / lookahead_threads=2 / sliced_threads=0 / nr=0 / decimate=1 / interlaced=0 / bluray_compat=0 / constrained_intra=0 / bframes=3 / b_pyramid=2 / b_adapt=1 / b_bias=0 / direct=1 / weightb=1 / open_gop=0 / weightp=2 / keyint=125 / keyint_min=63 / scenecut=0 / intra_refresh=0 / rc_lookahead=40 / rc=abr / mbtree=1 / bitrate=1500 / ratetol=1.0 / qcomp=0.60 / qpmin=0 / qpmax=69 / qpstep=4 / ip_ratio=1.40 / aq=1:1.00
Default                     : Yes
Forced                      : No

Audio #1
ID                          : 2
Format                      : AAC
Format/Info                 : Advanced Audio Codec
Format profile              : LC
Codec ID                    : A_AAC-2
Duration                    : 1 h 22 min
Bit rate                    : 96.0 kb/s
Channel(s)                  : 2 channels
Channel positions           : Front: L R
Sampling rate               : 44.1 kHz
Frame rate                  : 43.066 FPS (1024 SPF)
Compression mode            : Lossy
Delay relative to video     : -36 ms
Stream size                 : 56.6 MiB (4%)
Default                     : Yes
Forced                      : No

Audio #2
ID                          : 3
Format                      : AC-3
Format/Info                 : Audio Coding 3
Format settings, Endianness : Big
Codec ID                    : A_AC3
Duration                    : 1 h 22 min
Bit rate mode               : Constant
Bit rate                    : 640 kb/s
Channel(s)                  : 2 channels
Channel positions           : Front: L R
Sampling rate               : 44.1 kHz
Frame rate                  : 28.711 FPS (1536 SPF)
Bit depth                   : 16 bits
Compression mode            : Lossy
Delay relative to video     : -36 ms
Stream size                 : 377 MiB (29%)
Service kind                : Complete Main
Default                     : No
Forced                      : No




El Campeonato Mundial de Superbikes (abreviado SBK) es un campeonato mundial de motociclismo de velocidad que depende de la FIM Federación internacional de motociclismo. Se inició en 1988. A diferencia del MotoGP, las motocicletas son superbikes, por lo cual deben ser derivadas de las de serie y se exigen mínimos de unidades fabricadas.

La temporada 2019 del Campeonato Mundial de Superbikes fue la 32ª edición del Campeonato Mundial de Superbikes. Comenzó el 24 de febrero en Circuito de Phillip Island y finalizará el 27 de octubre en el Circuito Internacional de Losail después de 13 rondas y 26 carreras.

Para la temporada 2019, se introducirá un nuevo formato de carrera.? Al igual que en 2018, se llevarán a cabo dos carreras, una el sábado y otra el domingo (viernes y sábado en Qatar), pero una tercera carrera, denominada como la Superpole Race (Carrera Superpole), ahora se llevará a cabo en la mañana del domingo (sábado en Qatar), previo a la segunda carrera larga.

La carrera superpole será a solo 10 vueltas y entregará puntos solo a los primeros nueve clasificados, además los resultados no contarán para las estadísticas y los datos históricos.









Descarga todo de un servidor FREE + 1 parte NO FREE

Para descargar tener abierto JDownloader v2, Mipony o programa similar
















Previo Temporada:




[HIDE]
Insertar CODE, HTML o PHP:
https://safelinking.net/RTmxXxc
[/HIDE]




GP1 - Australia, Phillip Island Grand Prix Circuit







GP1: Australia - Superpole:




[HIDE]
Insertar CODE, HTML o PHP:
https://safelinking.net/5sJlHjj
[/HIDE]




GP1: Australia - Carrera 1:




[HIDE]
Insertar CODE, HTML o PHP:
https://safelinking.net/QHj2rXx
[/HIDE]




GP1: Australia - Superpole Race:




[HIDE]
Insertar CODE, HTML o PHP:
https://safelinking.net/CC66nKq
[/HIDE]




GP1: Australia - World Supersport:




[HIDE]
Insertar CODE, HTML o PHP:
https://safelinking.net/eIiUCBl
[/HIDE]




GP1: Australia - Carrera 2:




[HIDE]
Insertar CODE, HTML o PHP:
https://safelinking.net/ykEUD6e
[/HIDE]




GP 2 - Tailandia, Chang International Circuit







GP2: Tailandia - Superpole:




[HIDE]
Insertar CODE, HTML o PHP:
https://safelinking.net/q3nxicf
[/HIDE]




GP2: Tailandia - Carrera 1:




[HIDE]
Insertar CODE, HTML o PHP:
https://safelinking.net/MIaGRSt
[/HIDE]




GP2: Tailandia - Superpole Race:




[HIDE]
Insertar CODE, HTML o PHP:
https://safelinking.net/nRutriA
[/HIDE]




GP2: Tailandia - World Supersport:




[HIDE]
Insertar CODE, HTML o PHP:
https://safelinking.net/Rr1y5ER
[/HIDE]




GP2: Tailandia - Carrera 2:




[HIDE]
Insertar CODE, HTML o PHP:
https://safelinking.net/aadSfl8
[/HIDE]




GP 3 - España, Motorland Aragón







GP3: España - Superpole:




[HIDE]
Insertar CODE, HTML o PHP:
https://safelinking.net/PZPs7Qj
[/HIDE]




GP3: España - World Supersport:




[HIDE]
Insertar CODE, HTML o PHP:
https://safelinking.net/WhFKjYL
[/HIDE]




GP3: España - Carrera 1:




[HIDE]
Insertar CODE, HTML o PHP:
https://safelinking.net/rD79qdf
[/HIDE]




GP3: España - Superpole Race:




[HIDE]
Insertar CODE, HTML o PHP:
https://safelinking.net/5NEhJHb
[/HIDE]




GP3: España - World Supersport 300:




[HIDE]
Insertar CODE, HTML o PHP:
https://safelinking.net/aCs1GAx
[/HIDE]




GP3: España - Carrera 2:




[HIDE]
Insertar CODE, HTML o PHP:
https://safelinking.net/62TZn7w
[/HIDE]




GP 4 - Países Bajos, TT Circuit Assen







GP4: Países Bajos - Superpole:




[HIDE]
Insertar CODE, HTML o PHP:
https://safelinking.net/wbSC2XY
[/HIDE]




GP4: Países Bajos - World Supersport:




[HIDE]
Insertar CODE, HTML o PHP:
https://safelinking.net/lbmwEex
[/HIDE]




GP4: Países Bajos - Carrera 1:




[HIDE]
Insertar CODE, HTML o PHP:
https://safelinking.net/kszZ3Xp
[/HIDE]




GP4: Países Bajos - Superpole Race:




[HIDE]
Insertar CODE, HTML o PHP:
https://safelinking.net/JH6Sffg
[/HIDE]




GP4: Países Bajos - World Supersport 300:




[HIDE]
Insertar CODE, HTML o PHP:
https://safelinking.net/Tbe7Sop
[/HIDE]




GP4: Países Bajos - Carrera 2:




TDP:

[HIDE]
Insertar CODE, HTML o PHP:
https://safelinking.net/taa6pLo
[/HIDE]

DAZN:

[HIDE]
Insertar CODE, HTML o PHP:
https://safelinking.net/CzctMz2
[/HIDE]



Visita mi perfil para ver todos mis aportes




 
Última edición: