SAINT SEIYA - Los Caballeros del Zodiaco Temporada 1 [2019][MICROHD WEB-DL 1080p][MP4][Castellano DD + 5.1][06/06][426 MB][KATFLILE]


21 Jul 2019
434
65
#1



Sinopsis

Seiya y los demás Caballeros del Zodiaco juran proteger a la reencarnación de la diosa griega Atenea en su lucha contra los malvados que pretenden destruir la humanidad. Nueva adaptación para televisión del manga de Masami Kurumada, esta vez realizada con animación 3D.

CAPTURAS




TRAILER




DATOS TECNICOS

Título original: Knights of the Zodiac: Saint Seiya (TV Series)
Año: 2019
Duración: 23 Minutos
País: Japón
Director: Yoshiharu Ashino
Guión: Eugene Son, Patrick Rieger, Shaene Siders (Manga: Masami Kurumada)
Música: Yoshihiro Ike
Fotografía: Animation
Reparto: Animation
Género: Serie de TV. Animación. Fantástico. Acción | Manga. Remake
Productora: Toei Animation / Netflix / Electric Shadow Films. Distribuida por Netflix

INFO RIPEO

Título original: Knights of the Zodiac: Saint Seiya (TV Series)
Temporada: 1
Capítulos: 06
Calidad: HD 1080p
Resolución: 1920 x 1080
Idioma: Español Castellano
Video: MPEG4 Video (H264) 1920x1080 23.976fps 2264kbps [V: h264 high L4.0, yuv420p, 1920x1080, 2264 kb/s]
Frame rate: 23.976fps
Audio: DD+ 48000Hz 6ch 256kbps [A: SoundHandler [Spanish] (eac3, 48000 Hz, 5.1, 256 kb/s)]
Formato: MP4
Peso aproximado por capitulo: 426 MB
Tamaño Total: 3,04 GB

INFO-ARCHIVO

General
Complete name : C:\Users\lokit\Videos\SAINT SEIYA - Los Caballeros del Zodiaco\[T1.Ep1] SAINT SEIYA - Los Caballeros del Zodiaco - Seiya.mp4
Format : MPEG-4
Format profile : Base Media
Codec ID : isom (isom/iso2/avc1/mp41)
File size : 426 MiB
Duration : 23 min 35 s
Overall bit rate : 2 526 kb/s
Writing application : Lavf58.33.100

Video
ID : 1
Format : AVC
Format/Info : Advanced Video Codec
Format profile : [email protected]
Format settings, CABAC : Yes
Format settings, RefFrames : 3 frames
Codec ID : avc1
Codec ID/Info : Advanced Video Coding
Duration : 23 min 35 s
Bit rate : 2 264 kb/s
Width : 1 920 pixels
Height : 1 080 pixels
Display aspect ratio : 16:9
Frame rate mode : Constant
Frame rate : 23.976 FPS
Color space : YUV
Chroma subsampling : 4:2:0
Bit depth : 8 bits
Scan type : Progressive
Bits/(Pixel*Frame) : 0.046
Stream size : 382 MiB (90%)

Audio
ID : 2
Format : E-AC-3
Format/Info : Enhanced Audio Coding 3
Format settings, Endianness : Big
Codec ID : ec-3
Duration : 23 min 35 s
Bit rate mode : Constant
Bit rate : 256 kb/s
Channel(s) : 6 channels
Channel positions : Front: L C R, Side: L R, LFE
Sampling rate : 48.0 kHz
Frame rate : 187.500 FPS (256 SPF)
Bit depth : 16 bits
Compression mode : Lossy
Stream size : 43.2 MiB (10%)
Language : Spanish
Service kind : Complete Main
Default : Yes
Alternate group : 1



DESCARGA - KATFLILE

[T1.Ep1] SAINT SEIYA - Los Caballeros del Zodiaco - Seiya - 424 MB



[T1.Ep2] SAINT SEIYA - Los Caballeros del Zodiaco - Quema tu cosmo - 520 MB



[T1.Ep3] SAINT SEIYA - Los Caballeros del Zodiaco - La llegada del dragón - 543 MB



[T1.Ep4] SAINT SEIYA - Los Caballeros del Zodiaco - Cadena nebular - 582 MB



[T1.Ep5] SAINT SEIYA - Los Caballeros del Zodiaco - Los Caballeros Negros - 516 MB



[T1.Ep6] SAINT SEIYA - Los Caballeros del Zodiaco - Como el ave fénix - 517 MB