Comedia Las aventuras del Doctor Dolittle [2020][Aventuras][MicroHD720][Dual.Cast.Ing.+Subt][3GB][1Link-Mul]

⬇⬇⬇ SI QUIERES CONOCER GENTE NUEVA ⬇⬇⬇


oscar461

Aprendiz Warez
15 Nov 2019
5,500
476
363
#1






Después de perder a su mujer hace siete años, el excéntrico Dr. John Dolittle , un reputado doctor y veterinario, se encerró en sí mismo tras los muros de su mansión con la única compañía de su colección de animales exóticos. Pero cuando la joven reina cae gravemente enferma, Dolittle tendrá que dejar, muy a su pesar, su vida de ermitaño para embarcarse en una épica aventura a una mítica isla en busca de una cura, recuperando su sentido del humor y su coraje a medida que se cruza con viejos adversarios y mientras descubre maravillosas criaturas.



Titulo original:Dolittle
Año : 2020
Pais:Estados Unidos
Duracion : 101 min.
Reparto :Robert Downey Jr., Antonio Banderas, Michael Sheen, Jim Broadbent, Jessie Buckley, Harry Collett, Emma Thompson, Rami Malek, John Cena, Kumail Nanjiani, Octavia Spencer, Tom Holland, Craig Robinson, Ralph Fiennes, Selena Gomez, Marion Cotillard, Kasia Smutniak, Carmel Laniado, Frances de la Tour, Jason Mantzoukas, Ralph Ineson, Joanna Page, Oliver Chris, Clive Francis, Paul Holowaty, Sonny Ashbourne Serkis, Elliot Barnes-Worrell, Mark Umbers
Genero : Aventuras. Comedia | Animales. Cine familiar. Remake




Calidad:HD720
Tamaño: 3 Gb (Aprox.)
Formato : MKV
Resolución: 1280x720
Audio: AC3 5.1 (Dual) Castellano e Ingles
SubtitulosCastellano e Ingles

Mas info

Insertar CODE, HTML o PHP:
  General
Unique ID                                : 231710763195972586758459650706993677930 (0xAE51DEA677B62515BE69A3BFF775866A)
Complete name                            : /home/olegarci/public_html/files/Las.aventuras.del.Doctor.Dolittle.m720.mkv
Format                                   : Matroska
Format version                           : Version 4 / Version 2
File size                                : 2.90 GiB
Duration                                 : 1 h 41 min
Overall bit rate                         : 4 091 kb/s
Encoded date                             : UTC 2020-04-19 15:43:52
Writing application                      : mkvmerge v10.0.0 ('To Drown In You') 64bit
Writing library                          : libebml v1.3.4 + libmatroska v1.4.5

Video
ID                                       : 1
Format                                   : AVC
Format/Info                              : Advanced Video Codec
Format profile                           : High@L4.1
Format settings                          : CABAC / 5 Ref Frames
Format settings, CABAC                   : Yes
Format settings, ReFrames                : 5 frames
Codec ID                                 : V_MPEG4/ISO/AVC
Duration                                 : 1 h 41 min
Bit rate                                 : 3 193 kb/s
Width                                    : 1 280 pixels
Height                                   : 688 pixels
Display aspect ratio                     : 1.85:1
Frame rate mode                          : Constant
Frame rate                               : 23.976 (24000/1001) FPS
Color space                              : YUV
Chroma subsampling                       : 4:2:0
Bit depth                                : 8 bits
Scan type                                : Progressive
Bits/(Pixel*Frame)                       : 0.151
Stream size                              : 2.26 GiB (78%)
Writing library                          : x264 core 152 r2851 ba24899
Encoding settings                        : cabac=1 / ref=5 / deblock=1:-3:-3 / analyse=0x3:0x113 / me=umh / subme=11 / psy=1 / psy_rd=1.00:0.00 / mixed_ref=1 / me_range=48 / chroma_me=1 / trellis=2 / 8x8dct=1 / cqm=0 / deadzone=21,11 / fast_pskip=0 / chroma_qp_offset=-2 / threads=16 / lookahead_threads=2 / sliced_threads=0 / nr=0 / decimate=1 / interlaced=0 / bluray_compat=0 / constrained_intra=0 / bframes=11 / b_pyramid=2 / b_adapt=2 / b_bias=0 / direct=1 / weightb=1 / open_gop=0 / weightp=2 / keyint=240 / keyint_min=23 / scenecut=40 / intra_refresh=0 / rc_lookahead=45 / rc=crf / mbtree=1 / crf=19.8 / qcomp=0.70 / qpmin=0 / qpmax=69 / qpstep=4 / vbv_maxrate=62500 / vbv_bufsize=78125 / crf_max=0.0 / nal_hrd=none / filler=0 / ip_ratio=1.40 / aq=1:1.10
Language                                 : Spanish
Default                                  : Yes
Forced                                   : No

Audio #1
ID                                       : 2
Format                                   : AC-3
Format/Info                              : Audio Coding 3
Codec ID                                 : A_AC3
Duration                                 : 1 h 41 min
Bit rate mode                            : Constant
Bit rate                                 : 448 kb/s
Channel(s)                               : 2 channels
Channel positions                        : Front: L R
Sampling rate                            : 48.0 kHz
Frame rate                               : 31.250 FPS (1536 SPF)
Bit depth                                : 16 bits
Compression mode                         : Lossy
Stream size                              : 325 MiB (11%)
Language                                 : Spanish
Service kind                             : Complete Main
Default                                  : Yes
Forced                                   : No

Audio #2
ID                                       : 3
Format                                   : AC-3
Format/Info                              : Audio Coding 3
Codec ID                                 : A_AC3
Duration                                 : 1 h 41 min
Bit rate mode                            : Constant
Bit rate                                 : 448 kb/s
Channel(s)                               : 6 channels
Channel positions                        : Front: L C R, Side: L R, LFE
Sampling rate                            : 48.0 kHz
Frame rate                               : 31.250 FPS (1536 SPF)
Bit depth                                : 16 bits
Compression mode                         : Lossy
Stream size                              : 325 MiB (11%)
Language                                 : English
Service kind                             : Complete Main
Default                                  : No
Forced                                   : No

Text #1
ID                                       : 4
Format                                   : UTF-8
Codec ID                                 : S_TEXT/UTF8
Codec ID/Info                            : UTF-8 Plain Text
Duration                                 : 1 h 26 min
Bit rate                                 : 0 b/s
Count of elements                        : 17
Stream size                              : 510 Bytes (0%)
Language                                 : Spanish
Default                                  : Yes
Forced                                   : No

Text #2
ID                                       : 5
Format                                   : UTF-8
Codec ID                                 : S_TEXT/UTF8
Codec ID/Info                            : UTF-8 Plain Text
Duration                                 : 1 h 32 min
Bit rate                                 : 62 b/s
Count of elements                        : 1389
Stream size                              : 42.5 KiB (0%)
Language                                 : Spanish
Default                                  : No
Forced                                   : No

Text #3
ID                                       : 6
Format                                   : UTF-8
Codec ID                                 : S_TEXT/UTF8
Codec ID/Info                            : UTF-8 Plain Text
Duration                                 : 1 h 41 min
Bit rate                                 : 73 b/s
Count of elements                        : 2060
Stream size                              : 54.8 KiB (0%)
Language                                 : English
Default                                  : No
Forced                                   : No


Capturas




Servidores: Uploaded, ddownload, katfile, rockfile, rapidgator



Insertar CODE, HTML o PHP:
http://uploaded.net/file/h0drkbne
https://rapidgator.net/file/49274569c3bc67f41b655dbbcbbbca28

http://uploaded.net/file/y97c31xc/d0lhd720.part1.rar
http://uploaded.net/file/25gyy33e/d0lhd720.part2.rar
http://uploaded.net/file/j6vnex5j/d0lhd720.part3.rar

https://ddownload.com/5m3viq9qw3bu
https://ddownload.com/uf5pdvhdoika
https://ddownload.com/z6j9f8hthoqq

http://katfile.com/rprr9c2l4dq8/d0lhd720.part1.rar.html
http://katfile.com/6webih91cl98/d0lhd720.part2.rar.html
http://katfile.com/4niensukg71a/d0lhd720.part3.rar.html

https://rockfile.co/ggg81138qjmn.html
https://rockfile.co/6e5qhr8pcdos.html
https://rockfile.co/3sh0x2uv0iuz.html

https://rapidgator.net/file/539cd5db9e92fe4d765c3cd71a2f9804
https://rapidgator.net/file/83a43cd17f4a2bdff3d9b91234c981b9
https://rapidgator.net/file/38ffd2e718870d3b60057be28fb843f5