Evento Deportivo IndyCar Series (2019)[HDTV 720p][Español/Ing][4/17][VS]


1 Mar 2019
86
8
18
#1









IndyCar Series
Fecha: 10 de marzo – 22 de septiembre 2019
Temporada actual: 2019
Pilotos: 25 (En algunos circuitos y Ovalos); 33 (En Indianapolis y Fontana)
Piloto campeón: Scott Dixon; (2018)
Escudería campeona: Chip Ganassi; (2018)
Neumáticos: F Firestone
Países: Estados Unidos, Canadá

Calendario:

Ronda Fecha Carrera Circuito Tipo
1 10 de marzo Gran Premio San Petersburgo Bandera de Florida Circuito callejero de San Petersburgo, San Petersburgo Circuito
2 24 de marzo IndyCar Classic Bandera de Texas Circuito de las Américas, Austin Circuito
3 7 de abril Gran Premio de Alabama Flag of Alabama.svg Barber Motorsports Park, Leeds Circuito
4 14 de abril Gran Premio de Long Beach Flag of California.svg Circuito callejero de Long Beach, Long Beach Circuito
5 11 de mayo IndyCar Grand Prix Bandera de Indiana Indianapolis Motor Speedway Road Course, Speedway Circuito
6 26 de mayo 103° Indianapolis 500 Bandera de Indiana Indianapolis Motor Speedway, Speedway Óvalo
7 1 de junio Gran Premio de Detroit Bandera de Míchigan The Raceway at Belle Isle Park, Detroit Circuito
8 2 de junio
9 8 de junio DXC Technology 600 Bandera de Texas Texas Motor Speedway, Fort Worth Óvalo
10 23 de junio Kohler Grand Prix Bandera de Wisconsin Road America, Elkhart Lake Circuito
11 14 de julio Honda Indy Toronto Bandera de Canadá Exhibition Place, Toronto Circuito
12 20 de julio Iowa Corn 300 Bandera de Iowa Iowa Speedway, Newton Óvalo
13 28 de julio Honda Indy 200 Bandera de Ohio Mid-Ohio Sports Car Course, Lexington Circuito
14 18 de agosto Pocono 500 Flag of Pennsylvania.svg Pocono Raceway, Long Pond Óvalo
15 24 de agosto Bommarito Automotive Group 500 Bandera de Illinois Gateway Motorsports Park, Madison Óvalo
16 1 de septiembre Gran Premio de Portland Bandera de Oregón Portland International Raceway, Portland Circuito
17 22 de septiembre Monterrey Grand Prix Bandera de Texas WeatherTech Raceway Laguna Seca, Monterrey Circuito





Calidad: HDTV 720p
Formato: MKV
Resolución: 1280x720p
Video: AVC x264
Audio: Español/Inglés
Tamaño: 3,50 GB apróx.
Duración: 4 horas
Subtítulos: No
By: Parrix

Nota: Las 2 primeras carreras las teneis en 2 versiones para elegir, Español e Inglés, las demas todas en Español.

Nota 2: En estas carreras corre el piloto Español "Fernando Alonso".





Descomprimir con winrar, 7zip o programa similar



MediaInfo:

Insertar CODE, HTML o PHP:
General
Unique ID                                : 256247481734759850528841221224659837695 (0xC0C778466E216C815C9A9AB765DE62FF)
Complete name                            : IndyCar.GP1.St.Petersburg.mkv
Format                                   : Matroska
Format version                           : Version 4
File size                                : 3.47 GiB
Duration                                 : 2 h 0 min
Overall bit rate                         : 4 137 kb/s
Encoded date                             : UTC 2019-03-10 20:24:39
Writing application                      : mkvmerge v28.1.0 ('Morning Child') 64-bit
Writing library                          : libebml v1.3.6 + libmatroska v1.4.9

Video
ID                                       : 1
Format                                   : AVC
Format/Info                              : Advanced Video Codec
Format profile                           : [email protected]
Format settings                          : CABAC / 4 Ref Frames
Format settings, CABAC                   : Yes
Format settings, ReFrames                : 4 frames
Codec ID                                 : V_MPEG4/ISO/AVC
Duration                                 : 2 h 0 min
Bit rate mode                            : Constant
Bit rate                                 : 4 000 kb/s
Width                                    : 1 280 pixels
Height                                   : 720 pixels
Display aspect ratio                     : 16:9
Frame rate mode                          : Constant
Frame rate                               : 59.940 (60000/1001) FPS
Color space                              : YUV
Chroma subsampling                       : 4:2:0
Bit depth                                : 8 bits
Scan type                                : Progressive
Bits/(Pixel*Frame)                       : 0.072
Stream size                              : 3.36 GiB (97%)
Default                                  : Yes
Forced                                   : No

Audio
ID                                       : 2
Format                                   : AAC LC
Format/Info                              : Advanced Audio Codec Low Complexity
Codec ID                                 : A_AAC-2
Duration                                 : 2 h 0 min
Bit rate                                 : 126 kb/s
Channel(s)                               : 2 channels
Channel layout                           : L R
Sampling rate                            : 48.0 kHz
Frame rate                               : 46.875 FPS (1024 SPF)
Compression mode                         : Lossy
Delay relative to video                  : 8 ms
Stream size                              : 108 MiB (3%)
Default                                  : Yes
Forced                                   : No




La temporada 2019 de la IndyCar Series es la 24ª temporada de la serie IndyCar y la 108° del campeonato de monoplazas de Estados Unidos.

La IndyCar Series es la categoría de monoplazas más importante de los Estados Unidos, surgida originalmente bajo el nombre de Indy Racing League hacia el año de 1996 en pleito a la discrepancia por las políticas con la organización CART, lo cual se convirtió en una competición alterna y que pudiera competir frente a la categoría hermana y para poder disputar carreras en circuitos de tipo óvalo, al menos en sus inicios. En 2008, cuando la Champ Car (anteriormente CART) quedó en bancarrota y se fusionó (o reunificó) con la IndyCar, el campeonato se enriqueció de nuevo con competiciones en circuitos permanentes y circuitos callejeros. El campeonato forma parte del historial del Campeonato Americano de Monoplazas por el que se ha constituido la base del historial de los campeonatos antecesores (Campeonato Nacional de la AAA (1905-1955), el Campeonato Nacional del USAC (1956-1983), y CART/Champ Car World Series (1978-2008)), convirtiendole entre la serie de campeonatos que siguen el linaje de la serie americana de monoplazas organizada por diferentes entidades a lo largo de su historia entre los más antiguos del mundo, sin embargo, debido a que el ente rector fue fundado en 1996 a raíz de la época de división de la serie (1996-2008), como ente rector del campeonato dicho organismo no entra a ser el más antiguo del mundo por cuestiones de organización.

Gran parte del prestigio de este campeonato viene por contar entre sus pruebas con las 500 millas de Indianápolis y todo el campeonato gira en torno a esa carrera. En sus inicios, la totalidad de las fechas del campeonato se corrían en óvalos, donde se superan los 350 km/h de velocidad promedio. Desde la temporada 2005, se incorporan circuitos urbanos y autódromos, los cuales superan en cantidad a los óvalos a partir de 2010.









Se recomienda descargar con JDownloader v2, Mipony o programa similar



Descarga todo de un servidor FREE + 1 parte NO FREE











GP1 - San Petersburgo




Español:

[HIDE]
Insertar CODE, HTML o PHP:
https://safelinking.net/amtGNHM
[/HIDE]

Inglés:

[HIDE]
Insertar CODE, HTML o PHP:
https://safelinking.net/r6sCSjE
[/HIDE]


GP2 - IndyCar Classic




Español:

[HIDE]
Insertar CODE, HTML o PHP:
https://safelinking.net/QbA3yIw
[/HIDE]

Inglés:

[HIDE]
Insertar CODE, HTML o PHP:
https://safelinking.net/nRDaEaU
[/HIDE]


GP3 - Alabama




[HIDE]
Insertar CODE, HTML o PHP:
https://safelinking.net/4gBa1nW
[/HIDE]


GP4 - Long Beach




[HIDE]
Insertar CODE, HTML o PHP:
https://safelinking.net/ATsCrnp
[/HIDE]



Visita mi perfil para ver todos mis aportes




 
Última edición: