Evento Deportivo FIA WRC: Mundial de Rally (2019)[MicroHD 720p][Castellano][4/14][VS]


parrix

Miembro
1 Mar 2019
86
8
18
#1









WRC: Campeonato Mundial de Rally
Fecha: jue., 24 ene. 2019 – dom., 17 nov. 2019
Temporada actual: 2019
Temporada inicial: 1973
Emisión: TDP
Formato: Resumen interactivo
Duración: 50 Min
Constructores: 4 (Citroën, Ford, Hyundai, Toyota)
Piloto campeón: Sébastien Ogier
Escudería campeona: Toyota
Categoría: Rally

Calendario 2019

Ronda Fecha Rally Surpeficie
Inicio Final
1 22 de enero 27 de enero Bandera de Mónaco 87ème Rallye Automobile Monte-Carlo Mixto
2 14 de febrero 17 de febrero Bandera de Suecia 67th Rally Sweden Nieve
3 7 de marzo 10 de marzo Bandera de México 33.º Rally Guanajuato México Tierra
4 28 de marzo 30 de marzo Bandera de Francia 62ème Tour de Corse – Rallye de France Asfalto
5 25 de abril 28 de abril Bandera de Argentina 39.º Rally Argentina Tierra
6 9 de mayo 12 de mayo Bandera de Chile 1.º Rally de Chile Tierra
7 30 de mayo 2 de junio Bandera de Portugal 53.º Rally de Portugal Tierra
8 13 de junio 16 de junio Bandera de Italia 16.º Rally d'Italia Sardegna Tierra
9 1de agosto 4 de agosto Bandera de Finlandia 69th Rally Finland Tierra
10 22 de agosto 25 de agosto Bandera de Alemania 37.º ADAC Rallye Deutschland Asfalto
11 12 de septiembre 15 de septiembre Bandera de Turquía 12th Rally of Turkey Tierra
12 3 de octubre 6 de octubre Bandera de Reino Unido 75rd Wales Rally GB Tierra
13 24 de octubre 27 de octubre Bandera de España 55.º Rally RACC Catalunya – Costa Daurada Mixto
14 14 de noviembre 17 de noviembre Bandera de Australia 28th Rally Australia Tierra





Calidad: MicroHD 720p
Formato: MKV
Resolución: 1024x576p
Video: AVC H264
Audio: Castellano AC3 2.0
Tamaño: 800 MB
Subtítulos: No



MediaInfo:

Insertar CODE, HTML o PHP:
General
Unique ID                   : 215071111371789332693138269856821583571 (0xA1CD3079A88122EB83249C11C9329ED3)
Complete name               : D:\Descargas\Completas\1 WRC - Campeonato del Mundo 2019 Rally de Montecarlo Resumen [Calidad HQ]\WRC.1.M0ntecarl0.mkv
Format                      : Matroska
Format version              : Version 4 / Version 2
File size                   : 794 MiB
Duration                    : 52 min 6 s
Overall bit rate            : 2 131 kb/s
Encoded date                : UTC 2019-04-02 00:03:53
Writing application         : mkvmerge v16.0.0 ('Protest') 32-bit
Writing library             : libebml v1.3.5 + libmatroska v1.4.8

Video
ID                          : 1
Format                      : AVC
Format/Info                 : Advanced Video Codec
Format profile              : [email protected]
Format settings             : CABAC / 2 Ref Frames
Format settings, CABAC      : Yes
Format settings, RefFrames  : 2 frames
Codec ID                    : V_MPEG4/ISO/AVC
Duration                    : 52 min 6 s
Bit rate                    : 1 500 kb/s
Width                       : 1 024 pixels
Height                      : 576 pixels
Display aspect ratio        : 16:9
Frame rate mode             : Constant
Frame rate                  : 25.000 FPS
Color space                 : YUV
Chroma subsampling          : 4:2:0
Bit depth                   : 8 bits
Scan type                   : Progressive
Bits/(Pixel*Frame)          : 0.102
Stream size                 : 555 MiB (70%)
Writing library             : x264 core 120 r2833M 48cea7f
Encoding settings           : cabac=1 / ref=2 / deblock=1:0:0 / analyse=0x3:0x13 / me=hex / subme=4 / psy=1 / psy_rd=1.00:0.00 / mixed_ref=0 / me_range=16 / chroma_me=1 / trellis=1 / 8x8dct=1 / cqm=0 / deadzone=21,11 / fast_pskip=1 / chroma_qp_offset=0 / threads=48 / sliced_threads=0 / nr=0 / decimate=1 / interlaced=0 / bluray_compat=0 / constrained_intra=0 / bframes=0 / weightp=1 / keyint=100 / keyint_min=51 / scenecut=0 / intra_refresh=0 / keytime=0 / rc_lookahead=20 / rc=cbr / mbtree=1 / bitrate=1500 / ratetol=1.0 / qcomp=0.60 / qpmin=10 / qpmax=51 / qpstep=4 / vbv_maxrate=1500 / vbv_bufsize=6000 / nal_hrd=none / ip_ratio=1.40 / aq=1:1.00
Default                     : Yes
Forced                      : No

Audio
ID                          : 2
Format                      : AC-3
Format/Info                 : Audio Coding 3
Format settings, Endianness : Big
Codec ID                    : A_AC3
Duration                    : 52 min 6 s
Bit rate mode               : Constant
Bit rate                    : 640 kb/s
Channel(s)                  : 2 channels
Channel positions           : Front: L R
Sampling rate               : 44.1 kHz
Frame rate                  : 28.711 FPS (1536 SPF)
Bit depth                   : 16 bits
Compression mode            : Lossy
Stream size                 : 239 MiB (30%)
Service kind                : Complete Main
Default                     : Yes
Forced                      : No


Descomprimir con winrar, 7zip o programa similar.







- El Campeonato Mundial de Rally es una competición internacional de rally, organizada por la Federación Internacional del Automóvil y que se disputa anualmente desde 1973.

- La temporada 2019 es la edición 47.ª del Campeonato Mundial de Rally. Comenzará el 22 de enero en el Rally de Montecarlo y finalizará el 17 de noviembre en el Rally de Australia. El calendario consta de catorce pruebas, entre las que destaca el Rally de Chile, que entra por primera vez en la historia.??









Descarga todo de un servidor FREE + 1 parte NO FREE

Para descargar tener abierto JDownloader v2, Mipony o programa similar
















WRC 1: Rally de Montecarlo






[HIDE]
Insertar CODE, HTML o PHP:
https://safelinking.net/bZgRpPK
[/HIDE]




WRC 2: Rally de Suecia






[HIDE]
Insertar CODE, HTML o PHP:
https://safelinking.net/q1ydElJ
[/HIDE]




WRC 3: Rally de México






[HIDE]
Insertar CODE, HTML o PHP:
https://safelinking.net/PWkwccG
[/HIDE]




WRC 4: Rally de Córcega






[HIDE]
Insertar CODE, HTML o PHP:
https://safelinking.net/4PNpbJs
[/HIDE]



Visita mi perfil para ver todos mis aportes




 
Última edición: