Programa TV El Gran Pastelero: Bake Off España (2019)[T.1][HDTV 720p][Castellano][6/-][VS]


1 Mar 2019
86
8
18
#1











Género Talent Show
Presentador Jesús Vázquez
País de origen España
Idioma(s) Español
Duración 100 min
Productora Mediaset España





Calidad: HDTV 720p
Formato: MKV
Resolución: 1280x720p
Video: AVC
Audio: Castellano AAC 2.0
Tamaño: 1,92 GB



MediaInfo:

Insertar CODE, HTML o PHP:
General
Complete name               : C:\Users\User\Desktop\El.Gran.Pastelero.Bake.Off.m72O.1x01.mkv
Format                      : MPEG-4
Format profile              : Base Media
Codec ID                    : isom (isom/iso2/avc1/mp41)
File size                   : 1.92 GiB
Duration                    : 1 h 40 min
Overall bit rate mode       : Constant
Overall bit rate            : 2 730 kb/s
Writing application         : Lavf58.20.100
FileExtension_Invalid       : mov mp4 m4v m4a m4b m4p 3ga 3gpa 3gpp 3gp 3gpp2 3g2 k3g jpm jpx mqv ismv isma ismt f4a f4b f4v

Video
ID                          : 1
Format                      : AVC
Format/Info                 : Advanced Video Codec
Format profile              : [email protected]
Format settings             : 1 Ref Frames
Format settings, CABAC      : No
Format settings, RefFrames  : 1 frame
Codec ID                    : avc1
Codec ID/Info               : Advanced Video Coding
Duration                    : 1 h 40 min
Bit rate mode               : Constant
Bit rate                    : 2 600 kb/s
Width                       : 1 280 pixels
Height                      : 720 pixels
Display aspect ratio        : 16:9
Frame rate mode             : Constant
Frame rate                  : 25.000 FPS
Standard                    : PAL
Color space                 : YUV
Chroma subsampling          : 4:2:0
Bit depth                   : 8 bits
Scan type                   : Progressive
Bits/(Pixel*Frame)          : 0.113
Stream size                 : 1.83 GiB (95%)
Color range                 : Limited
Color primaries             : BT.601 PAL
Transfer characteristics    : BT.601
Matrix coefficients         : BT.470 System B, BT.470 System G

Audio
ID                          : 2
Format                      : AAC
Format/Info                 : Advanced Audio Codec
Format profile              : LC
Codec ID                    : mp4a-40-2
Duration                    : 1 h 40 min
Bit rate mode               : Constant
Bit rate                    : 126 kb/s
Channel(s)                  : 2 channels
Channel positions           : Front: L R
Sampling rate               : 44.1 kHz
Frame rate                  : 43.066 FPS (1024 SPF)
Compression mode            : Lossy
Stream size                 : 90.7 MiB (5%)
Default                     : Yes
Alternate group             : 1


Descomprimir con winrar, 7zip o programa similar.







Bake Off España es un programa de televisión gastronómico que busca al mejor pastelero o pastelera amateur de España. Se trata de la adaptación española del programa de la BBC, The Great British Bake Off y se emite en Cuatro desde el 6 de marzo de 2019.?










Descarga todo de un servidor FREE + 1 parte NO FREE

Para descargar tener abierto JDownloader v2, Mipony o programa similar














1x01:

[HIDE]
Insertar CODE, HTML o PHP:
https://safelinking.net/g5QotAz
[/HIDE]

1x02:

[HIDE]
Insertar CODE, HTML o PHP:
https://safelinking.net/4CPSQdJ
[/HIDE]

1x03:

[HIDE]
Insertar CODE, HTML o PHP:
https://safelinking.net/MHaJm4I
[/HIDE]

1x04:

[HIDE]
Insertar CODE, HTML o PHP:
https://safelinking.net/KDJzFzA
[/HIDE]

1x05:

[HIDE]
Insertar CODE, HTML o PHP:
https://safelinking.net/S4z2KAy
[/HIDE]

1x06:

[HIDE]
Insertar CODE, HTML o PHP:
https://safelinking.net/zcZBxuB
[/HIDE]


Visita mi perfil para ver todos mis aportes




 
Última edición: