Comedia De la vieja escuela [2018][Comedia][MicroHD720][Castellano][2,3 GB][1Link-Multi]


oscar461

Aprendiz Warez
15 Nov 2019
7,880
711
863
#1






Revisión de Cyrano de Bergerac ambientada en un colegio privado escocés en los años 80, en donde un patoso pero imaginativo estudiante ayuda al héroe del colegio, guapo pero tonto, a conseguir acercarse a la hija de un recién llegado profesor de francés. (FILMAFFINITY)



Titulo original:Old Boys
Año : 2018
Pais:Reino Unido
Duracion : 90 min.
Reparto : Alex Lawther, Denis Menochet, Eros Vlahos, Nicholas Rowe, Joshua McGuire, Pauline Etienne, Nicholas Agnew, Jonah Hauer-King, Steve Saunders, Jack Cooper Stimpson, Jon Wennington, Anthony Arundell, John Kinory, Noah Twine, Stuart Whelan
Genero : Comedia | Colegios & Universidad. Adolescencia. Años 80




Calidad:BluRay720
Tamaño: 2,3 Gb (Aprox.)
Formato : MKV
Resolución: 1280x720
Audio: AC3 5.1 (Dual) Castellano


Mas info

Insertar CODE, HTML o PHP:
  General
Unique ID                                : 202407212043179213451378483843283293417 (0x9846360840138AC490773314836C14E9)
Complete name                            : /home/olegarci/public_html/files/De.la.vieja.escuela.BluRay720p.mkv
Format                                   : Matroska
Format version                           : Version 4 / Version 2
File size                                : 2.37 GiB
Duration                                 : 1 h 35 min
Overall bit rate                         : 3 576 kb/s
Movie name                               : De.la.vieja.escuela.WEB.DL.720p.Dolby.Digital.2.0.Anonymous_x.X.x
Encoded date                             : UTC 2020-04-29 05:31:37
Writing application                      : mkvmerge v7.7.0 ('Six Voices') 32bit built on Feb 28 2015 23:23:00
Writing library                          : libebml v1.3.1 + libmatroska v1.4.2

Video
ID                                       : 1
Format                                   : AVC
Format/Info                              : Advanced Video Codec
Format profile                           : High@L4.1
Format settings                          : CABAC / 2 Ref Frames
Format settings, CABAC                   : Yes
Format settings, ReFrames                : 2 frames
Codec ID                                 : V_MPEG4/ISO/AVC
Duration                                 : 1 h 34 min
Bit rate                                 : 3 200 kb/s
Width                                    : 1 280 pixels
Height                                   : 692 pixels
Display aspect ratio                     : 1.85:1
Frame rate mode                          : Constant
Frame rate                               : 24.000 FPS
Color space                              : YUV
Chroma subsampling                       : 4:2:0
Bit depth                                : 8 bits
Scan type                                : Progressive
Bits/(Pixel*Frame)                       : 0.151
Stream size                              : 2.07 GiB (87%)
Title                                    : De.la.vieja.escuela.WEB.DL.720p.Dolby.Digital.2.0.Anonymous_x.X.x
Writing library                          : x264 core 142
Encoding settings                        : cabac=1 / ref=1 / deblock=1:-1:-1 / analyse=0x3:0 / me=hex / subme=5 / psy=0 / mixed_ref=0 / me_range=16 / chroma_me=1 / trellis=0 / 8x8dct=1 / cqm=0 / deadzone=21,11 / fast_pskip=0 / chroma_qp_offset=0 / threads=8 / lookahead_threads=2 / sliced_threads=0 / nr=0 / decimate=1 / interlaced=0 / bluray_compat=0 / constrained_intra=0 / bframes=2 / b_pyramid=0 / b_adapt=1 / b_bias=0 / direct=1 / weightb=0 / open_gop=0 / weightp=0 / keyint=24 / keyint_min=13 / scenecut=40 / intra_refresh=0 / rc=abr / mbtree=0 / bitrate=3200 / ratetol=1.0 / qcomp=0.60 / qpmin=0 / qpmax=69 / qpstep=4 / ip_ratio=1.40 / pb_ratio=1.30 / aq=1:1.00
Language                                 : Spanish
Default                                  : Yes
Forced                                   : No
Color range                              : Limited
Color primaries                          : BT.709
Transfer characteristics                 : BT.709
Matrix coefficients                      : BT.709

Audio
ID                                       : 2
Format                                   : AC-3
Format/Info                              : Audio Coding 3
Codec ID                                 : A_AC3
Duration                                 : 1 h 35 min
Bit rate mode                            : Constant
Bit rate                                 : 448 kb/s
Channel(s)                               : 2 channels
Channel positions                        : Front: L R
Sampling rate                            : 44.1 kHz
Frame rate                               : 28.711 FPS (1536 SPF)
Bit depth                                : 16 bits
Compression mode                         : Lossy
Stream size                              : 304 MiB (13%)
Title                                    : Castellano
Language                                 : Spanish
Service kind                             : Complete Main
Default                                  : Yes
Forced                                   : No

Text
ID                                       : 3
Format                                   : UTF-8
Codec ID                                 : S_TEXT/UTF8
Codec ID/Info                            : UTF-8 Plain Text
Duration                                 : 1 h 22 min
Bit rate                                 : 8 b/s
Count of elements                        : 157
Stream size                              : 5.27 KiB (0%)
Title                                    : Forzados
Language                                 : Spanish
Default                                  : Yes
Forced                                   : No


Capturas




Servidores: Uploaded, nitroflare, katfile, rockfile, rapidgator



Insertar CODE, HTML o PHP:
http://uploaded.net/file/8o6x7434
https://rapidgator.net/file/5c5e1a63cb572a0fd231e5cd46407fc6

http://uploaded.net/file/9bkdm6h3/v13jhd720.part1.rar
http://uploaded.net/file/hcu6rmpt/v13jhd720.part2.rar
http://uploaded.net/file/bewbrknv/v13jhd720.part3.rar

http://katfile.com/mcxa0p2c6eaq/v13jhd720.part1.rar.html
http://katfile.com/osoziud1yuwd/v13jhd720.part2.rar.html
http://katfile.com/wqhxul7qdf26/v13jhd720.part3.rar.html

https://nitroflare.com/view/BBB117DC3B3816F/v13jhd720.part1.rar
https://nitroflare.com/view/B69D1DD128BE1ED/v13jhd720.part2.rar
https://nitroflare.com/view/ED0DB6705332E80/v13jhd720.part3.rar

https://rockfile.co/s4r859ck8wxo.html
https://rockfile.co/vnqv622a5hwa.html
https://rockfile.co/jj8urrc77akv.html

https://rapidgator.net/file/b60b97ac78dff1b2512b3b1632f7066d
https://rapidgator.net/file/05122e68f5a5a84b8c0e9ce58a9a43c0
https://rapidgator.net/file/dc935882442e64ad688b0e95d52be9fc