Serie TV Black Lightning (TV Series) Temporada 1 [2018][MICROHD WEB-DL 1080p][MP4][Latino Dual DD 5.1 + Subs][13/13][1,16 GB][Multi]


juandavid

Warez Activo
21 Jul 2019
570
93
63
#1



Sinopsis

Jefferson Pierce ha hecho su elección. Colgó el traje y su identidad secreta años atrás, pero volverá a la lucha como la leyenda de DC: Black Lightning.

CAPTURAS



INFO DE LA SERIE

Título original: Black Lightning (TV Series)
Año: 2018
Duración: 43 min.
País: Estados Unidos
Dirección: Salim Akil (Creator), Salim Akil, Oz Scott, Michael Schultz, Rose Troche, Benny Boom, Tanya Hamilton, Eric Laneuville, Tawnia McKiernan, Salli Richardson-Whitfield, Mark Tonderai, Bille Woodruff
Guion: Salim Akil, Tony Isabella, Trevor Von Eeden, Keli Goff, Lamont Magee, Charles Holland, Jan Nash, Pat Charles, Adam Giaudrone, Melora Rivera (Cómic: Tony Isabella, Trevor Von Eeden)
Música: Kurt Farquhar
Fotografía: Scott Peck, Eduardo Enrique Mayén, Michael Watson
Reparto: Cress Williams, China Anne McClain, Christine Adams, Nafessa Williams, Dabier, Kwajalyn Brown, Hal Whiteside, Damon Gupton, James Remar, Jordan Calloway, Skye P. Marshall, William Catlett, Chantal Thuy, Charlbi Dean Kriek, Kyanna Simone Simpson, Clifton Powell, Eric Mendenhall, Jennifer Riker, Gregg Henry, Anthony Reynolds, Amanda Davis, Tommy Kane, Jill Scott, Crystal Lee Brown, Bill Duke, Tracey Bonner, Jason Louder, Myles Truitt, Al-Jaleel Knox, Shein Mompremier, Joshua Mikel, Donny Carrington, Reginald Robinson, Robert Townsend, Edwina Findley Dickerson, Alphonso A'Qen-Aten Jackson
Productora: Warner Bros. Television / Berlanti Productions / DC Entertainment. Distribuida por The CW / Netflix
Género: Serie de TV. Acción. Ciencia ficción | Superhéroes. Cómic. DC Comics

TRAILER



INFO RIPEO

Título original: Black Lightning (TV Series)
Temporada: 1
Capítulos: 13
Calidad: HD 1080p
Resolución: 1920 x 1080
Idioma: Latino - Inglés + Sub. Lat/Ing
Video: MPEG4 Video (H264) 1920x1080 23.976fps 3064kbps [V: h264 high L4.0, yuv420p, 1920x1080, 3064 kb/s]
Audio: DD+ 48000Hz 6ch 256kbps [A: Audio Media Handler [eng] (eac3, 48000 Hz, 5.1, 256 kb/s)]
Audio: DD+ 48000Hz 6ch 256kbps [A: Audio Media Handler [spa] (eac3, 48000 Hz, 5.1, 256 kb/s)]
Audio: DD+ 48000Hz 6ch 256kbps [A: Audio Media Handler [eng] (eac3, 48000 Hz, 5.1, 256 kb/s)]
Formato: MP4
Peso aproximado por capitulo: 1,16 GB
Tamaño Total: 12,6 GB

INFO-ARCHIVO

General
Complete name : C:\Users\lokit\Videos\Black Lightning 1 1080p\[T1.Ep1] Black Lightning - La resurrección\[T1.Ep1] Black Lightning - La resurrección.mp4
Format : MPEG-4
Format profile : Base Media
Codec ID : isom (isom/iso2/avc1/mp41)
File size : 1.16 GiB
Duration : 43 min 23 s
Overall bit rate : 3 837 kb/s
Writing application : Lavf58.33.100

Video
ID : 1
Format : AVC
Format/Info : Advanced Video Codec
Format profile : High@L4
Format settings, CABAC : Yes
Format settings, RefFrames : 3 frames
Codec ID : avc1
Codec ID/Info : Advanced Video Coding
Duration : 43 min 21 s
Bit rate : 3 065 kb/s
Width : 1 920 pixels
Height : 1 080 pixels
Display aspect ratio : 16:9
Frame rate mode : Constant
Frame rate : 23.976 FPS
Color space : YUV
Chroma subsampling : 4:2:0
Bit depth : 8 bits
Scan type : Progressive
Bits/(Pixel*Frame) : 0.062
Stream size : 950 MiB (80%)

Audio #1
ID : 2
Format : E-AC-3
Format/Info : Enhanced Audio Coding 3
Format settings, Endianness : Big
Codec ID : ec-3
Duration : 43 min 23 s
Bit rate mode : Constant
Bit rate : 256 kb/s
Channel(s) : 6 channels
Channel positions : Front: L C R, Side: L R, LFE
Sampling rate : 48.0 kHz
Frame rate : 187.500 FPS (256 SPF)
Bit depth : 16 bits
Compression mode : Lossy
Stream size : 79.4 MiB (7%)
Language : English
Service kind : Complete Main
Default : Yes
Alternate group : 1

Audio #2
ID : 3
Format : E-AC-3
Format/Info : Enhanced Audio Coding 3
Format settings, Endianness : Big
Codec ID : ec-3
Duration : 43 min 23 s
Bit rate mode : Constant
Bit rate : 256 kb/s
Channel(s) : 6 channels
Channel positions : Front: L C R, Side: L R, LFE
Sampling rate : 48.0 kHz
Frame rate : 187.500 FPS (256 SPF)
Bit depth : 16 bits
Compression mode : Lossy
Stream size : 79.4 MiB (7%)
Language : Spanish
Service kind : Complete Main
Default : Yes
Alternate group : 2

Audio #3
ID : 4
Format : E-AC-3
Format/Info : Enhanced Audio Coding 3
Format settings, Endianness : Big
Codec ID : ec-3
Duration : 43 min 23 s
Bit rate mode : Constant
Bit rate : 256 kb/s
Channel(s) : 6 channels
Channel positions : Front: L C R, Side: L R, LFE
Sampling rate : 48.0 kHz
Frame rate : 187.500 FPS (256 SPF)
Bit depth : 16 bits
Compression mode : Lossy
Stream size : 79.4 MiB (7%)
Language : English
Service kind : Complete Main
Default : Yes
Alternate group : 3


UptoBox - Katfile - Ddl - Speed-Down - Rockfile - Mega

DESCARGA

Insertar CODE, HTML o PHP:
https://binbox.io/UtMwv#RXSF8pfP
https://www.keeplinks.org/p38/5e7ba0b4d5e69
https://binbox.io/WzzVc#NJHRTaT1
 
Gustó a: rayus