Terror Las Reglas de Slaughterhouse Belzebuth [2018][Brrip][HD 1080p][MVK][Latino][UPTOBOX]


juandavid

Aprendiz Warez
21 Jul 2019
742
128
163
#1

8.jpg

INFO DE LA PELICULA

Slaughterhouse es un internado de élite en el que se prepara a los jóvenes para el poder y la grandeza. Sin embargo, un inesperado acontecimiento sacudirá literalmente los cimientos de su mundo. Pronto se establecerá una nueva jerarquía que enfrentará a estudiantes y profesores en una sangrienta batalla.

CAPTURAS

Las Reglas de Slaughterhouse Belzebuth [2018][Brrip][HD 1080p][MVK][Latino][UPTOBOX].mkv_thumb...jpg

TRAILER




FICHA TÉCNICA

Titulo: Las Reglas de Slaughterhouse 2018 BrRip HD 1080p Latino - Ingles
BrRip 1080p | MKV | Latino Ac3 5.1 - Ingles Ac3 5.1 + Subtitulos Español
Titulo Original: Slaughterhouse Rulez
Año: 2018-10-31
Duracion: 104 minutos
Director(es): Crispian Mills
Actores: Finn Cole, Michael Sheen, Simon Pegg, Asa Butterfield, Nick Frost, Hermione Corfield, Jamie Blackley, Jo Hartley, Isabella Laughland, Tom Rhys Harries, Jassa Ahluwalia
Guion: Crispian Mills, Henry Fitzherbert
Productora: Stolen Picture
Genero: Terror, Comedia

INFO RIPEO

Año: 2018
Idioma: Español Latino
Subtítulos: Español Latino
Formato: MKV
Resolución: 1920x808
Tamaño Total: 2,30 GB
Duracion: 104 min

INFO-ARCHIVO

General
Unique ID : 23305441181150918827093493654410940448 (0x118876F6D3EAF94E1A9CDA146BB6D020)
Complete name : C:\Users\CLAUDIO\Videos\Las Reglas de Slaughterhouse Belzebuth [2018][Brrip][HD 1080p][MVK][Latino][UPTOBOX]\Las Reglas de Slaughterhouse Belzebuth [2018][Brrip][HD 1080p][MVK][Latino][UPTOBOX].mkv
Format : Matroska
Format version : Version 4 / Version 2
File size : 2.30 GiB
Duration : 1 h 43 min
Overall bit rate : 3 178 kb/s
Movie name : Las Reglas de Slaughterhouse Belzebuth [2018][Brrip][HD 1080p][MVK][Latino][UPTOBOX]
Encoded date : UTC 2019-09-24 17:41:10
Writing application : mkvmerge v37.0.0 ('Leave It') 64-bit
Writing library : libebml v1.3.9 + libmatroska v1.5.2 / Lavf58.20.100

Video
ID : 1
Format : AVC
Format/Info : Advanced Video Codec
Format profile : Baseline@L4
Format settings, CABAC : No
Format settings, RefFrames : 1 frame
Codec ID : V_MPEG4/ISO/AVC
Duration : 1 h 43 min
Bit rate : 2 500 kb/s
Width : 1 920 pixels
Height : 808 pixels
Display aspect ratio : 2.40:1
Frame rate mode : Constant
Frame rate : 23.976 (24000/1001) FPS
Color space : YUV
Chroma subsampling : 4:2:0
Bit depth : 8 bits
Scan type : Progressive
Bits/(Pixel*Frame) : 0.067
Stream size : 1.79 GiB (78%)
Writing library : x264 core 155 r2901 7d0ff22
Encoding settings : cabac=0 / ref=1 / deblock=1:0:0 / analyse=0x1:0x111 / me=hex / subme=2 / psy=1 / psy_rd=1.00:0.00 / mixed_ref=0 / me_range=16 / chroma_me=1 / trellis=0 / 8x8dct=0 / cqm=0 / deadzone=21,11 / fast_pskip=1 / chroma_qp_offset=0 / threads=25 / lookahead_threads=6 / sliced_threads=0 / nr=0 / decimate=1 / interlaced=0 / bluray_compat=0 / constrained_intra=0 / bframes=0 / weightp=0 / keyint=250 / keyint_min=23 / scenecut=40 / intra_refresh=0 / rc_lookahead=10 / rc=abr / mbtree=1 / bitrate=2500 / ratetol=1.0 / qcomp=0.60 / qpmin=0 / qpmax=69 / qpstep=4 / ip_ratio=1.40 / aq=1:1.00
Default : Yes
Forced : No

Audio #1
ID : 2
Format : AC-3
Format/Info : Audio Coding 3
Format settings, Endianness : Big
Codec ID : A_AC3
Duration : 1 h 43 min
Bit rate mode : Constant
Bit rate : 256 kb/s
Channel(s) : 2 channels
Channel positions : Front: L R
Sampling rate : 48.0 kHz
Frame rate : 31.250 FPS (1536 SPF)
Bit depth : 16 bits
Compression mode : Lossy
Stream size : 190 MiB (8%)
Language : Spanish
Service kind : Complete Main
Default : Yes
Forced : No

Audio #2
ID : 3
Format : AC-3
Format/Info : Audio Coding 3
Format settings, Endianness : Big
Codec ID : A_AC3
Duration : 1 h 43 min
Bit rate mode : Constant
Bit rate : 448 kb/s
Channel(s) : 2 channels
Channel positions : Front: L R
Sampling rate : 48.0 kHz
Frame rate : 31.250 FPS (1536 SPF)
Bit depth : 16 bits
Compression mode : Lossy
Stream size : 332 MiB (14%)
Title : Stereo
Language : English
Service kind : Complete Main
Default : No
Forced : No

Text
ID : 4
Format : UTF-8
Codec ID : S_TEXT/UTF8
Codec ID/Info : UTF-8 Plain Text
Duration : 1 h 40 min
Bit rate : 70 b/s
Count of elements : 1649
Stream size : 52.2 KiB (0%)
Language : Spanish
Default : No
Forced : No

Menu
00:00:00.000 : :Chapter 1
00:07:13.600 : :Chapter 2
00:13:35.898 : :Chapter 3
00:19:19.950 : :Chapter 4
00:25:51.550 : :Chapter 5
00:32:12.848 : :Chapter 6
00:38:57.877 : :Chapter 7
00:45:25.056 : :Chapter 8
00:51:12.695 : :Chapter 9
00:56:48.071 : :Chapter 10
01:01:45.368 : :Chapter 11
01:10:52.957 : :Chapter 12
01:17:56.547 : :Chapter 13
01:25:59.029 : :Chapter 14
01:33:08.666 : :Chapter 15
01:37:12.535 : :Chapter 16


DESCARGA - UPTOBOX