Documental Documental. Todo Sobre El Asado [DVBRip][Latino][UL-UP]


14 Dic 2017
774
80
68
#1

Todo sobre el asado es un viaje a lo profundo de la Argentina. El asado es una comida y un ritual. Es primitivo y contemporáneo, salvaje y refinado, un arte y una ciencia. Pocos fenómenos revelan con mayor originalidad y precisión los rasgos esenciales de la identidad nacional. Por primera vez una película le hace frente a esta tradición casi sagrada con una mirada filosa e incorrecta.


Format : MPEG-4
Format profile : Base Media
Codec ID : isom (isom/iso2/mp41)
File size : 861 MiB
Duration : 1 h 25 min
Overall bit rate mode : Constant
Overall bit rate : 1 406 kb/s
Writing application : Lavf57.26.100

Video
ID : 2
Format : MPEG-4 Visual
Format profile : [email protected]
Format settings, BVOP : No
Format settings, QPel : No
Format settings, GMC : No warppoints
Format settings, Matrix : Default (H.263)
Codec ID : 20
Duration : 1 h 25 min
Bit rate mode : Constant
Bit rate : 1 275 kb/s
Width : 720 pixels
Height : 480 pixels
Display aspect ratio : 16:9
Original display aspect rat : 16:9
Frame rate mode : Constant
Frame rate : 25.000 FPS
Color space : YUV
Chroma subsampling : 4:2:0
Bit depth : 8 bits
Scan type : Progressive
Compression mode : Lossy
Bits/(Pixel*Frame) : 0.148
Stream size : 781 MiB (91%)
Writing library : Lavc57.27.100

Audio
ID : 1
Format : MPEG Audio
Format version : Version 1
Format profile : Layer 3
Mode : Joint stereo
Mode extension : MS Stereo
Codec ID : 6B
Duration : 1 h 25 min
Duration_LastFrame : -22 ms
Bit rate mode : Constant
Bit rate : 128 kb/s
Channel(s) : 2 channels
Sampling rate : 48.0 kHz
Compression mode : Lossy
Stream size : 78.4 MiB (9%)
Writing library : LAME3.99.5
Default : Yes
Alternate group : 1

http://ul.to/2qiqdn3p
http://ul.to/p9egwoej
http://ul.to/8l4jfsoh
http://ul.to/6laloerb
http://ul.to/9hzx9q4x

https://www.keeplinks.co/p64/59dfe9ac0bfbe
 
Iniciado por Temas similares Foro Respuestas Fecha
Series TV y Documentales 0

Temas similares